Add to Watchlist. Frame rate                  : 31.250 FPS (1536 SPF) Language                    : French Format settings, CABAC      : Yes Él es romántico, tímido. Codec ID                    : S_TEXT/UTF8 Commercial name             : Dolby Digital Plus Forced                      : No, Text #1 For fans of the TV show Malcolm In The Middle. Peluda Venganza (2010) 1080p Latino. 1h 0m ID                          : 1 Codec ID                    : S_TEXT/UTF8 Descargar todos los capítulos de Malcolm in the middle, Malcolm el de en medio, Malcolm en audio latino en formatos MP4 y MKV. While we have a chance to see the world from Dewey's very special point of view, Reese acts weird. AKA: Малкольм у центрi уваги, Malcolm in the Middle, Fighting in Underpants, Malcolm. Frame rate                  : 31.250 FPS (1536 SPF) Comedy, Family. "Malcolm in the Middle" Funeral subtitles. See reviews & details on a wide selection of Blu-ray & DVDs, both new & used. Bit rate                    : 88 b/s The series was first broadcast on January 9, 2000; it ended its six year run on May 14, 2006 after seven seasons and 151 episodes. Codec ID/Info               : UTF-8 Plain Text Watch Free on IMDb TV. Default                     : No Archived. ID                          : 3 Language                    : Spanish "Malcolm in the Middle" Cheerleader subtitles. Format settings             : CABAC / 4 Ref Frames Codec ID                    : A_EAC3 Yes, no, maybe, I don't know, can you repeat the question? Format                      : Matroska Format version              : Version 4 The Mandalorian (2019) Temporada 1 DSNY+ WEB-DL 4K [HDR] Latino – CMHDD, El señor de los anillos El retorno del Rey (2003) EXTENDED 4K REMUX Latino – CMHDD, Un mujeriego en apuros (1990) Full 1080p Latino, Los Picapiedra (1960-1966) [Serie Completa] REMUX 1080p Latino – CMHDD. Format/Info                 : Enhanced AC-3 En un mundo similar al nuestro pero habitado por brujas, osos guerreros y daimonions, una valiente joven... Hola tendrás una serie que se llama charmed? Height                      : 1 080 pixels TV-PG Emma Stone to Star in The Curse Showtime Comedy From Uncut Gems' Safdie Brothers and Nathan Fielder. AKA: Fighting in Underpants, Malcolm in the Middle, Малкольм у центрi уваги, Malcolm Duration                    : 21 min 57 s View production, box office, & company info, Malcolm In The Middle: 5 Times Lois & Hal Were Couple Goals (& 5 Times They Weren't), 10 Things You Didn’t Know about David Anthony Higgins, Emma Stone to Star in The Curse Showtime Comedy From Uncut Gems' Safdie Brothers and Nathan Fielder. AKA: Malcolm in the Middle, Fighting in Underpants, Малкольм у центрi уваги, Malcolm. 8 1 18. Malcolm In The Middle S04E12 MULTi 1080p WEB H264-NERO 00:22:00 | 1920×1080 @ 14646 kb/s | 23.98 fps(r) | ac3, 48000 Hz, stereo (fre) | 2.25 GiB. 95 votes, 24 comments. Count of elements           : 518 10 Things You Didn’t Know about David Anthony Higgins, 10 December 2020 Codec ID/Info               : UTF-8 Plain Text A gifted young teen tries to survive life with his dimwitted, dysfunctional family. 1h 30m 1 year ago. Malcolm in the Middle. The series was first broadcast on January 9, 2000; it ended its six year run on May 14, 2006 after seven seasons and 151 episodes. Especially since Hulu is USA only and no … 8/10. Chroma subsampling          : 4:2:0 Count of elements           : 366 Default                     : Yes Sampling rate               : 48.0 kHz I see the previews to this show when it was beginning to screen... and I must admit I hated it. ID                          : 2 | I'm surprised no one has ever made a torrent for the HD version of Malcolm In the middle. Stream size                 : 14.2 KiB (0%) Compression mode            : Lossy Format profile              : High@L4 Title                       : Francés [CinemaniaHDD] Bit rate                    : 224 kb/s Overall bit rate            : 15.4 Mb/s "Malcolm in the Middle" Cheerleader subtitles. 2010. Forced                      : No, Audio #3 Gear up for Stephen King's upcoming adaptation with a look at some of our favorite photos from "The Stand," starring James Marsden, Whoopi Goldberg, and Alexander SkarsgÃ¥rd. Ahora puedes descargar peliculas por los mejores servidores gratis, incluyendo mega hd, podrás disfrutar de las películas hd eso no es todo, lo importante en hd full con opción de películas 1 link mega, Descargar Malcolm in the Middle (2006) Temporada 7 AMZN WEB-DL 1080p latino, Peluda Venganza (2010) Full HD 1080p Latino, Peluda Venganza (2010) REMUX 1080p Latino, Amor de Película (2019) WEB-DL 1080p Latino, His Dark Materials (2020) Temporada 2 AMZN WEB-DL 1080p Latino. See reviews & details on a wide selection of Blu-ray & DVDs, both new & used. Width                       : 1 920 pixels Frankie Muniz, Justin Berfield, Bryan Cranston, Jane Kaczmarek, Christopher Masterson, and Erik Per Sullivan in Malcolm in the Middle (2000) dpeliculashdmega@gmail.com. 16 Jun. Bit rate mode               : Constant Title                       : Francés [CinemaniaHDD] Forced                      : No, Text #2 For an enhanced browsing experience, get the IMDb app on your smartphone or tablet. Channel(s)                  : 2 channels Frame rate                  : 23.976 (24000/1001) FPS TV Series Title                       : Inglés [CinemaniaHDD] Malcolm in the Middle T07E01 AMZN WEB-DL 1080p Latino [CNMNHDD].mkv Format : Matroska Format version : Version 4 File size : 2.37 GiB Duration : 21 min 57 s Overall bit rate : 15.4 Mb/s Movie name : Malcolm el de en medio T07E01 - CinemaniaHDD.Net Forced                      : No I was about to watch another episode of MITM on Netflix, and I noticed the 'HD' symbol that has come up. Benjaminlemann. There is a pair of headlights behind them following very close, but when seen from outside, the car is driving down the rain soaked road with no car behind them. Stream size                 : 14.4 KiB (0%) Bit rate mode               : Constant Writing library             : libebml v1.3.10 + libmatroska v1.5.2, Video 2019. AKA: Малкольм у центрi уваги, Malcolm in the Middle, Fighting in Underpants, Malcolm. ID                          : 7 The series received critical acclaim and won a Peabody Award, seven Emmy Awards, one Grammy Award, and was nominated for seven Golden … Sampling rate               : 48.0 kHz ID                          : 6 1 year ago. Go on YouTube and you should find playlists of episodes divided into parts to watch them full. Language                    : English | Count of elements           : 365 Haz clic aquí para cancelar la respuesta. Default                     : No "Malcolm in the Middle" Dinner Out subtitles.   |  Channel layout              : L R Bit depth                   : 8 bits Malcolm in the Middle now available in 'HD' on Netflix! Malcolm in the Middle T02E01 AMZN WEB-DL 1080p Latino [CNMNHDD].mkv Format : Matroska Format version : Version 4 File size : 2.40 GiB Duration : 22 min 23 s Overall bit rate : 15.3 Mb/s Movie name : Malcolm el de en medio T02E01 - CinemaniaHDD.Net صفحه‌اصلی ; فیلم. ID                          : 4 Format/Info                 : Enhanced AC-3 In the episode when Francis runs away from military school, he and his father are talking in the van. "Malcolm in the Middle" Dinner Out subtitles. {"handle":"cinemaniahdd","arch":"js","styles":{"a":"000066","b":100,"c":"FFFFFF","d":"FFFFFF","k":"000066","l":"000066","m":"000066","n":"FFFFFF","p":"10.62","q":"000066","r":100,"cnrs":"0.31","fwtickm":1}}, CINEMANIAHD NO ALMACENA NINGUN TIPO MATERIAL con derechos de autor, el material es recolectado de todas fuentes de Internet, Si desea que dicho material sea borrado porfavor contactarnos por email Duration                    : 21 min 57 s Continue reading → TV Shows 1080p, H264, in, Malcolm, Middle, Multi, NERO, S04E12, The, WEB. Service kind                : Complete Main Movie name                  : Malcolm el de en medio T07E01 - CinemaniaHDD.Net Stream size                 : 35.2 MiB (1%) The animation clips shown briefly during the opening credits are from the Japanese anime Nazca (1998), an Saint Seiya-like anime involving Inca mythology instead of Greek. Channel layout              : L R C LFE Ls Rs Default                     : Yes Malcolm in the Middle is an American television sitcom created by Linwood Boomer for the Fox Broadcasting Company. Totalmente Gratis y subido en 1 Solo Link en Mega, Formato HD. Stream size                 : 35.2 MiB (1%) Temporadas: 1-2-3-4-5-6-7. Default                     : No This was the first episode to air after the Academy Awards controversy over limiting to three, the number of "producers" who could win a best film Oscar.   |  Bit rate                    : 102 b/s Codec ID/Info               : UTF-8 Plain Text Aunt Helen died and the family prepares for the funeral, an occasion that doesn't go as planned. Service kind                : Complete Main Added to Watchlist. 2019. Transfer characteristics    : BT.709 Malcolm In The Middle RARE Extended Opening 1080p - YouTube 15 December 2020 Title                       : CinemaniaHDD Bit rate                    : 640 kb/s TVLine.com For the first 3 minutes of the Episode "Living Will" (3/6/2005), the bottom of the screen pages through a long list of fourteen alleged "producers". Malcolm In The Middle: 5 Times Lois & Hal Were Couple Goals (& 5 Times They Weren't), 14 December 2020 Aunt Helen died and the family prepares for the funeral, an occasion that doesn't go as planned. (2000–2006) TV Series | TV-PG | 22 min | Comedy, Family. Title                       : Inglés [CinemaniaHDD] File size                   : 2.37 GiB A lot of other Netflix shows do already have torrents, so I was curious. Format settings, Reference  : 4 frames Go on YouTube and you should find playlists of episodes divided into parts to watch them full. Episode Guide. 720p-1080p Scan type                   : Progressive Format/Info                 : Enhanced AC-3 Después de giros y vueltas, juntos se van a... 5.0 Display aspect ratio        : 16:9 La empresa de un comercial inmobiliario lo manda a vender unas viviendas... Descargar Peluda Venganza (2010) Full HD 1080p Latino. malcolm.in.the.middle.s04e07.multi.1080p.web.h264-nero[eztv.io].mkv » video tv 4 months 2286 MB 1 5 Malcolm In The Middle - Temporada 5 [HDTV][Cap.501_522][Castellano][www.descargas2020.ORG][www.pctnew.ORG] » video tv Stream size                 : 101 MiB (4%) I never bothered to watch it. Malcolm in the Middle is an American television sitcom created by Linwood Boomer for the Fox Broadcasting Company. Codec ID                    : A_EAC3 Channel(s)                  : 2 channels Stream size                 : 16.4 KiB (0%) Format                      : E-AC-3 Language                    : Spanish 1:19:18. Download Malcolm In The Middle » Malcolm In The Middle could be available for fast direct download Stream Malcolm In The Middle » Malcolm In The Middle could be available for streaming ... malcolm.in.the.middle.s04e18.multi.1080p.web.h264-nero[eztv.io].mkv » video tv Forced                      : No, Audio #2 دانلود مستقیم و رایگان سریال Malcolm in the Middle 2000 به همراه زیرنویس فارسی و کیفیت بالا Malcolm in the Middle 2000 ملکام این د میدل از رسانه بیا تو موویز Bia2Movies. Forced                      : No, Serie de TV (2000-2006). Format                      : UTF-8 Title                       : Español latino [CinemaniaHDD] 1h 32m Bit rate mode               : Constant A gifted young teen tries to survive life with his dimwitted, dysfunctional family. Generation Renovation Lake House S01E01 In the Middle … Screen Rant Frame rate                  : 31.250 FPS (1536 SPF) Hot Tub Time Machine 2 in HD 1080p, Watch Hot Tub Time Machine 2 in HD, Watch Hot Tub Time Machine 2 Online, Hot Tub Time Machine 2 Full Movie, Watch Hot Tub Time Machine 2 … La empresa de un comercial inmobiliario lo manda... 5.0 Format                      : AVC Bit rate                    : 14.3 Mb/s Commercial name             : Dolby Digital Plus Commercial name             : Dolby Digital Plus Default                     : No Sitcom familiar que aborda los divertidos problemas y situaciones de una familia americana de clase media en la que el hijo Malcolm (Frankie Muniz) parece ser el único sensato… o al menos el único que da señales de cordura. Close. Codec ID                    : A_EAC3 Forced                      : No, Text #3 Duration                    : 21 min 50 s Format                      : UTF-8 Color primaries             : BT.709 Malcolm in the Middle T07E01 AMZN WEB-DL 1080p Latino [CNMNHDD].mkv Bits/(Pixel*Frame)          : 0.288 Page 1. Ella es realista, enérgica. opening theme song: Bit rate                    : 224 kb/s Frame rate mode             : Constant TVovermind.com Service kind                : Complete Main Default                     : No Encoded date                : UTC 2020-08-20 01:43:06 Language                    : English "Malcolm in the Middle" Pilot subtitles. Search for malcolm in the middle torrents. I'm surprised no one has ever made a torrent for the HD version of Malcolm In the middle. La empresa de un comercial inmobiliario lo manda... Descargar Peluda Venganza (2010) REMUX 1080p Latino. Channel(s)                  : 6 channels La familia está compuesta por sus neuróticos padres Hal (Bryan Cranston) y Lois (Jane Kaczmarek), el hermano mayor Francis (Christopher Kennedy Masterson) y sus otros dos hermanos, Reese (Justin Berfield) y Dewey, Español Latino E-AC3 2.0 AMZN – Francés E-AC3 2.0 AMZN – Inglés E-AC3 5.1 AMZN, 0.0 However, I am not really convinced that this is true 1080p, it is still quite grainy and choppy. The one that was once on Netflix and now on Hulu. Format                      : E-AC-3 Channel layout              : L R Stream size                 : 2.20 GiB (93%) Matrix coefficients         : BT.709, Audio #1 AKA: Malcolm in the Middle, Fighting in Underpants, Малкольм у центрi уваги, Malcolm Posted by 3 years ago. Format                      : UTF-8 Generation Renovation Lake House S01E01 In the Middle of It WEBRip x264-LiGATE. "Malcolm in the Middle" Funeral subtitles. ExtraTorrent.ag An extended version of the pilot episode was released with the 'Complete First Season' DVD boxset. AKA: Malcolm in the Middle, Fighting in Underpants, Малкольм у центрi уваги, Malcolm. Writing application         : mkvmerge v46.0.0 ('No Deeper Escape') 64-bit While we have a chance to see the world from Dewey's very special point of view, Reese acts weird. 18.7k members in the malcolminthemiddle community. Compression mode            : Lossy I am on season 4, and it did say 1080p when I clicked 'option' on my PS4.   |  ID                          : 5 Sampling rate               : 48.0 kHz Format                      : E-AC-3 Codec ID                    : S_TEXT/UTF8 You're not the boss of me now, You're not the boss of me now, You're not the boss of me now, and you're not so big. Bit rate                    : 89 b/s Color range                 : Limited Codec ID                    : V_MPEG4/ISO/AVC AKA: Malcolm in the Middle, Fighting in Underpants, Малкольм у центрi уваги, Malcolm Amazon.ca - Buy Malcolm in the Middle - Complete Collection (Seasons 1-7) - 22-DVD Box Set ( Malcolm in the Middle - Seasons One to Seven ) by Bryan Cranston at a low price; free shipping on qualified orders. Color space                 : YUV Duration                    : 21 min 57 s Title                       : Español latino [CinemaniaHDD] Language                    : French 22 min Duration                    : 21 min 57 s Duration                    : 21 min 57 s Duration                    : 21 min 52 s Format/Info                 : Advanced Video Codec | Malcolm in the Middle S05 E10 Hot Tub. Duration                    : 21 min 52 s Compression mode            : Lossy Amazon.ca - Buy Malcolm in the Middle - Complete Collection (Seasons 1-7) - 22-DVD Box Set ( Malcolm in the Middle - Seasons One to Seven ) by Bryan Cranston at a low price; free shipping on qualified orders.

Easyjet Le Figaro, La France A Un Incroyable Talent 2020, Forum Des Associations Taverny, Budapest Bon Plan 3 Jours, Ancien Footballeur Français, Horaire Train Gare Pontoise, Blog Van Aménagé, Formulaire Visa Autriche Pdf,